osu file format v14

[General]
AudioFilename: connect_r.mp3
AudioLeadIn: 2000
PreviewTime: 66840
Countdown: 0
SampleSet: Normal
StackLeniency: 0.7
Mode: 1
LetterboxInBreaks: 0
WidescreenStoryboard: 0

[Editor]
Bookmarks: 66840
DistanceSpacing: 1
BeatDivisor: 2
GridSize: 32
TimelineZoom: 1

[Metadata]
Title:CONNECT r
TitleUnicode:CONNECT γ
Artist:remixed celas vs 44teru-k
ArtistUnicode:remixed celas vs 44teru-k
Creator:dialgadu77
Version:Kantan
Source:BMS
Tags:gamma mahou shoujo puella magi madoka magica madomagi creation anime hardcore
BeatmapID:204159
BeatmapSetID:71163

[Difficulty]
HPDrainRate:4
CircleSize:5
OverallDifficulty:4
ApproachRate:5
SliderMultiplier:1.4
SliderTickRate:1

[Events]
//Background and Video events
0,0,"mdk_ichiou.jpg",0,0
//Break Periods
//Storyboard Layer 0 (Background)
//Storyboard Layer 1 (Fail)
//Storyboard Layer 2 (Pass)
//Storyboard Layer 3 (Foreground)
//Storyboard Sound Samples
//Background Colour Transformations
3,100,163,162,255

[TimingPoints]
1011,342.857142857143,4,1,0,70,1,0
1011,-100,4,1,0,70,0,0
66840,-100,4,1,0,70,0,1
76268,-100,4,1,0,70,0,0
78154,-100,4,1,0,70,0,1
79697,-100,4,1,0,70,0,0
80382,-100,4,1,0,70,0,1
88782,-100,4,1,0,70,0,0

[Colours]
Combo1 : 112,196,193
Combo2 : 243,89,34
Combo3 : 112,196,193
Combo4 : 243,89,34

[HitObjects]
256,192,1011,21,12,0:0:0:0:
256,192,1697,5,0,0:0:0:0:
256,192,2382,5,8,0:0:0:0:
256,192,3754,1,0,0:0:0:0:
256,192,4440,5,8,0:0:0:0:
256,192,5125,5,0,0:0:0:0:
256,192,6497,1,8,0:0:0:0:
256,192,7182,1,12,0:0:0:0:
256,192,7868,1,8,0:0:0:0:
256,192,8554,5,0,0:0:0:0:
256,192,9240,1,0,0:0:0:0:
256,192,9925,5,8,0:0:0:0:
256,192,10611,1,0,0:0:0:0:
256,192,11982,21,12,0:0:0:0:
256,192,12668,5,0,0:0:0:0:
256,192,13354,1,0,0:0:0:0:
256,192,14040,5,8,0:0:0:0:
256,192,14725,1,8,0:0:0:0:
256,192,15411,5,0,0:0:0:0:
256,192,16097,1,0,0:0:0:0:
256,192,17468,5,0,0:0:0:0:
256,192,18154,5,8,0:0:0:0:
256,192,18840,5,0,0:0:0:0:
256,192,19525,5,8,0:0:0:0:
256,192,20211,5,8,0:0:0:0:
256,192,20897,1,0,0:0:0:0:
256,192,21582,1,0,0:0:0:0:
256,192,22268,1,0,0:0:0:0:
256,192,22611,1,0,0:0:0:0:
256,192,22954,1,4,0:0:0:0:
256,192,23640,1,0,0:0:0:0:
256,192,24325,1,0,0:0:0:0:
256,192,25011,1,0,0:0:0:0:
256,192,25353,1,0,0:0:0:0:
256,192,25697,5,0,0:0:0:0:
256,192,26382,1,0,0:0:0:0:
256,192,27068,1,8,0:0:0:0:
256,192,27754,1,0,0:0:0:0:
256,192,28096,1,0,0:0:0:0:
256,192,28440,5,0,0:0:0:0:
256,192,29125,1,0,0:0:0:0:
256,192,29811,1,8,0:0:0:0:
256,192,30497,1,0,0:0:0:0:
256,192,31182,5,8,0:0:0:0:
256,192,31868,5,0,0:0:0:0:
256,192,32554,5,12,0:0:0:0:
256,192,33240,5,0,0:0:0:0:
256,192,33925,5,12,0:0:0:0:
256,192,35297,5,0,0:0:0:0:
256,192,35982,5,8,0:0:0:0:
256,192,36325,1,8,0:0:0:0:
256,192,36668,1,0,0:0:0:0:
256,192,37354,1,0,0:0:0:0:
256,192,38040,5,0,0:0:0:0:
256,192,38725,5,8,0:0:0:0:
256,192,39411,5,0,0:0:0:0:
256,192,40097,1,0,0:0:0:0:
256,192,40782,5,8,0:0:0:0:
256,192,42154,1,12,0:0:0:0:
256,192,43182,1,12,0:0:0:0:
256,192,44211,1,12,0:0:0:0:
256,192,44897,1,12,0:0:0:0:
256,192,45582,1,8,0:0:0:0:
256,192,46268,5,0,0:0:0:0:
256,192,47640,5,0,0:0:0:0:
256,192,48325,5,8,0:0:0:0:
256,192,49011,5,0,0:0:0:0:
256,192,49697,5,8,0:0:0:0:
256,192,50382,5,4,0:0:0:0:
256,192,51754,1,4,0:0:0:0:
256,192,53125,1,12,0:0:0:0:
256,192,53811,1,0,0:0:0:0:
256,192,54497,1,0,0:0:0:0:
256,192,55182,1,0,0:0:0:0:
256,192,55525,1,0,0:0:0:0:
256,192,55868,1,4,0:0:0:0:
256,192,56554,1,8,0:0:0:0:
256,192,57240,1,0,0:0:0:0:
256,192,57925,1,0,0:0:0:0:
256,192,58611,5,8,0:0:0:0:
256,192,59982,1,0,0:0:0:0:
256,192,60668,1,0,0:0:0:0:
256,192,61011,1,0,0:0:0:0:
256,192,61354,1,4,0:0:0:0:
256,192,62040,5,8,0:0:0:0:
256,192,62725,5,4,0:0:0:0:
256,192,63411,5,8,0:0:0:0:
256,192,64097,5,4,0:0:0:0:
256,192,64782,1,4,0:0:0:0:
256,192,65125,1,4,0:0:0:0:
256,192,65468,2,0,L|96:192,2,140,,,0:0:0:0:
256,192,66840,1,12,0:0:0:0:
256,192,67525,1,8,0:0:0:0:
256,192,68211,5,8,0:0:0:0:
256,192,68897,1,0,0:0:0:0:
256,192,69582,1,0,0:0:0:0:
256,192,70268,1,0,0:0:0:0:
256,192,70611,1,0,0:0:0:0:
256,192,70954,5,12,0:0:0:0:
256,192,71468,1,12,0:0:0:0:
256,192,72325,5,0,0:0:0:0:
256,192,73011,5,8,0:0:0:0:
256,192,73697,5,4,0:0:0:0:
256,192,74382,5,8,0:0:0:0:
256,192,74897,5,4,0:0:0:0:
256,192,75754,1,0,0:0:0:0:
256,192,76268,1,4,0:0:0:0:
256,192,76782,1,0,0:0:0:0:
256,192,77125,1,0,0:0:0:0:
256,192,77468,1,0,0:0:0:0:
256,192,78154,5,12,0:0:0:0:
256,192,78840,1,8,0:0:0:0:
256,192,79182,5,0,0:0:0:0:
256,192,79697,5,12,0:0:0:0:
256,192,80040,1,12,0:0:0:0:
256,192,80382,5,4,0:0:0:0:
256,192,80897,5,8,0:0:0:0:
256,192,81582,1,8,0:0:0:0:
256,192,81925,1,12,0:0:0:0:
256,192,82440,1,12,0:0:0:0:
256,192,83297,5,4,0:0:0:0:
256,192,83982,1,8,0:0:0:0:
256,192,84668,1,4,0:0:0:0:
256,192,85354,1,8,0:0:0:0:
256,192,86040,1,4,0:0:0:0:
256,192,86725,1,8,0:0:0:0:
256,192,87411,5,12,0:0:0:0:
256,192,88097,5,0,0:0:0:0:
256,192,88782,1,4,0:0:0:0:
